osu file format v14

[General]
AudioFilename: zuipzhiupi.mp3
AudioLeadIn: 1500
PreviewTime: 26632
Countdown: 0
SampleSet: Soft
StackLeniency: 0.7
Mode: 0
LetterboxInBreaks: 0
WidescreenStoryboard: 0

[Editor]
Bookmarks: 35166
DistanceSpacing: 1
BeatDivisor: 2
GridSize: 4
TimelineZoom: 1.85

[Metadata]
Title:Senorita Bonita
TitleUnicode:Senorita Bonita
Artist:Celldweller
ArtistUnicode:Celldweller
Creator:Peachtrees
Version:Easy
Source:
Tags:Soundtrack for the Voices in My Head Volume 02 FiXT Music Klayton Instrumental rock electronic dnb ambient drum and bass dubstep experimental musix industrial metal
BeatmapID:785925
BeatmapSetID:353368

[Difficulty]
HPDrainRate:2
CircleSize:2
OverallDifficulty:2
ApproachRate:3
SliderMultiplier:1.1
SliderTickRate:1

[Events]
//Background and Video events
0,0,"vbvbvbvbvbvbv.jpg",0,0
//Break Periods
//Storyboard Layer 0 (Background)
//Storyboard Layer 1 (Fail)
//Storyboard Layer 2 (Pass)
//Storyboard Layer 3 (Foreground)
//Storyboard Sound Samples

[TimingPoints]
587,545.454545454546,4,2,0,40,1,0
1814,-100,4,2,0,53,0,0
2632,-100,4,2,0,40,0,0
3996,-100,4,2,0,53,0,0
4950,-100,4,2,0,40,0,0
6177,-100,4,2,0,53,0,0
7132,-100,4,2,0,40,0,0
7814,-100,4,2,0,53,0,0
8496,-100,4,2,0,40,0,0
9177,-100,4,2,0,45,0,0
18041,-100,4,2,0,54,0,0
24587,-100,4,2,0,52,0,0
25677,-100,4,2,0,32,0,0
25950,-100,4,2,0,54,0,0
26223,-100,4,2,0,53,0,0
26427,-100,4,2,0,60,0,0
26768,-100,4,2,0,60,0,1
44223,-100,4,2,0,45,0,0
50768,-100,4,2,0,36,0,0
52950,-100,4,2,0,60,0,0
61677,-100,4,2,0,60,0,1
79132,-100,4,2,0,45,0,0
85677,-100,4,2,0,40,0,0
85950,-100,4,2,0,50,0,0
86359,-100,4,2,0,60,0,0
87859,-100,4,2,0,53,0,0
91200,-100,4,2,0,18,0,0

[Colours]
Combo1 : 0,0,193
Combo2 : 0,64,128
Combo3 : 0,249,249
Combo4 : 255,74,165

[HitObjects]
20,89,587,6,0,B|-11:136|-9:221|77:257|77:257|169:210,1,275,0|2,3:0|0:0,0:0:0:0:
281,142,2768,6,0,B|334:112|413:129|445:195|445:195|501:99,1,275,0|2,3:0|0:0,0:0:0:0:
506,287,4950,6,0,B|316:314|316:314|236:290,1,275,0|2,3:0|0:0,0:0:0:0:
80,237,7132,6,0,B|44:190|48:127|83:85,1,165,0|2,3:0|0:0,0:0:0:0:
180,31,8496,2,0,B|216:52|216:52|317:49,1,110,0|0,0:0|0:0,0:0:0:0:
330,79,9314,6,0,B|303:99|292:131|298:161,2,82.5,4|8|2,0:1|0:0|3:0,0:0:0:0:
383,64,10405,1,8,3:0:0:0:
422,166,10950,1,2,3:0:0:0:
386,270,11496,6,0,B|321:304|321:304|224:290,1,165,0|2,1:0|3:0,0:0:0:0:
215,237,12587,2,0,B|195:285|146:311|96:304|61:276,1,165,8|2,3:0|0:0,0:0:0:0:
27,263,13677,6,0,L|38:344,2,82.5,0|8|2,1:0|0:0|3:0,0:0:0:0:
20,208,14768,1,8,3:0:0:0:
39,99,15314,1,2,3:0:0:0:
133,42,15859,6,0,B|190:35|264:62|269:158|269:158|342:108|342:108|373:142|433:144,1,385,4|0,0:1|0:0,0:0:0:0:
478,130,18041,6,0,L|450:254,1,110,0|2,1:0|0:0,0:0:0:0:
399,332,19132,1,0,1:0:0:0:
316,259,19677,1,2,0:0:0:0:
227,324,20223,6,0,B|184:332|144:310|125:275,1,110,0|2,1:0|0:0,0:0:0:0:
21,271,21314,1,0,1:0:0:0:
31,161,21859,1,2,0:0:0:0:
140,169,22405,6,0,L|269:177,1,110,0|2,1:0|0:0,0:0:0:0:
318,89,23496,1,0,1:0:0:0:
427,87,24041,1,2,0:0:0:0:
500,169,24587,6,0,B|518:212|500:260|463:284,1,110,4|4,1:0|1:0,0:0:0:0:
384,326,25677,2,0,L|322:318,1,55,4|8,3:0|3:0,0:0:0:0:
285,284,26223,2,0,L|224:287,1,55,2|2,3:0|0:0,0:0:0:0:
175,289,26768,5,4,1:0:0:0:
82,229,27314,1,0,1:0:0:0:
115,124,27859,2,0,B|154:100|200:104|234:128,1,110,0|0,1:0|1:0,0:0:0:0:
296,39,28950,6,0,B|341:39|380:65|398:102,1,110,0|0,1:0|1:0,0:0:0:0:
429,190,30041,2,0,L|533:182,2,82.5,2|2|2,0:0|3:0|0:0,0:0:0:0:
398,235,31132,6,0,L|283:227,1,110,0|0,1:0|1:0,0:0:0:0:
207,301,32223,1,0,1:0:0:0:
97,298,32768,1,0,1:0:0:0:
26,215,33314,6,0,B|10:176|17:134|42:104,1,110,0|0,1:0|1:0,0:0:0:0:
147,106,34405,2,0,B|160:139|151:175|128:198,2,82.5,2|2|2,0:0|3:0|0:0,0:0:0:0:
175,59,35496,6,0,B|212:77|212:77|293:72,1,110,0|0,1:0|1:0,0:0:0:0:
376,18,36587,2,0,B|416:10|454:26|477:55,1,110,0|0,1:0|1:0,0:0:0:0:
394,127,37677,5,0,1:0:0:0:
466,209,38223,1,0,1:0:0:0:
377,274,38768,2,0,B|396:304|429:319|462:318,2,82.5,2|2|2,0:0|3:0|0:0,0:0:0:0:
332,306,39859,6,0,B|306:343|259:355|220:339,1,110,0|0,1:0|1:0,0:0:0:0:
153,270,40950,2,0,B|114:278|77:261|56:232,1,110,0|0,1:0|1:0,0:0:0:0:
2,135,42041,5,0,1:0:0:0:
45,33,42587,1,0,1:0:0:0:
154,23,43132,2,0,L|252:21,2,82.5,2|2|2,0:0|3:0|0:0,0:0:0:0:
171,75,44223,6,0,B|282:89|282:89|329:136,1,165,4|2,1:0|3:0,0:0:0:0:
355,167,45314,1,8,3:0:0:0:
437,94,45859,1,2,0:0:0:0:
498,185,46405,6,0,B|509:229|492:273|460:300,1,110,0|0,1:0|1:0,0:0:0:0:
430,323,47223,1,2,3:0:0:0:
377,340,47496,2,0,L|251:331,1,110,8|2,3:0|0:0,0:0:0:0:
225,230,48587,6,0,B|117:239|117:239|56:209,1,165,0|2,1:0|3:0,0:0:0:0:
53,160,49677,2,0,B|57:118|88:87|125:78,1,110,8|2,3:0|0:0,0:0:0:0:
220,121,50768,5,2,3:0:0:0:
296,42,51314,2,0,L|405:50,1,110,2|2,3:0|0:0,0:0:0:0:
454,148,52405,2,0,L|396:151,1,55,2|2,0:0|3:0,0:0:0:0:
347,170,52950,6,0,B|323:210|334:260|367:287,1,110,4|2,0:1|0:0,0:0:0:0:
278,353,54041,2,0,B|239:332|218:290|222:249,1,110,0|2,1:0|0:0,0:0:0:0:
220,153,55132,5,0,1:0:0:0:
124,207,55677,1,2,0:0:0:0:
17,177,56223,2,0,B|4:136|4:136|16:62,1,110,0|2,1:0|0:0,0:0:0:0:
111,18,57314,5,0,1:0:0:0:
212,59,57859,2,0,B|251:75|292:67|322:42,1,110,2|0,3:0|1:0,0:0:0:0:
419,83,58950,2,0,L|415:146,1,55,2|0,3:0|0:0,0:0:0:0:
362,153,59496,6,0,L|363:284,1,110,4|4,1:0|1:0,0:0:0:0:
288,344,60587,2,0,B|251:359|212:352|183:331,1,110,0|0,3:0|1:0,0:0:0:0:
137,300,61405,1,0,0:0:0:0:
95,263,61677,6,0,L|102:151,1,110,4|0,1:0|1:0,0:0:0:0:
164,62,62768,1,0,1:0:0:0:
241,139,63314,1,0,1:0:0:0:
304,48,63859,6,0,B|348:35|392:52|418:85,1,110,0|0,1:0|1:0,0:0:0:0:
396,182,64950,2,0,B|370:207|333:213|303:200,2,82.5,2|2|2,0:0|3:0|0:0,0:0:0:0:
444,208,66041,6,0,B|452:249|452:249|432:337,1,110,0|0,1:0|1:0,0:0:0:0:
326,313,67132,1,0,1:0:0:0:
241,243,67677,1,0,1:0:0:0:
247,133,68223,6,0,B|206:110|158:114|124:140,1,110,0|0,1:0|1:0,0:0:0:0:
61,53,69314,2,0,B|85:23|122:11|157:16,2,82.5,2|2|2,0:0|3:0|0:0,0:0:0:0:
37,102,70405,6,0,L|46:226,1,110,0|0,1:0|1:0,0:0:0:0:
154,196,71496,2,0,L|151:322,1,110,0|0,1:0|1:0,0:0:0:0:
239,372,72587,5,0,1:0:0:0:
348,371,73132,1,0,1:0:0:0:
421,289,73677,2,0,B|456:277|492:286|518:309,2,82.5,2|2|2,0:0|3:0|0:0,0:0:0:0:
393,241,74768,6,0,L|264:234,1,110,0|0,1:0|1:0,0:0:0:0:
260,127,75859,2,0,L|150:132,1,110,0|0,1:0|1:0,0:0:0:0:
73,53,76950,5,0,1:0:0:0:
3,138,77496,1,0,1:0:0:0:
76,220,78041,2,0,B|61:252|67:287|87:313,2,82.5,2|2|2,0:0|3:0|0:0,0:0:0:0:
126,198,79132,6,0,B|233:196|233:196|303:232,1,165,4|2,1:0|3:0,0:0:0:0:
328,255,80223,1,8,3:0:0:0:
418,317,80768,1,2,0:0:0:0:
500,244,81314,6,0,B|522:204|515:158|489:126,1,110,0|0,1:0|1:0,0:0:0:0:
468,93,82132,1,2,3:0:0:0:
429,54,82405,2,0,L|305:56,1,110,8|2,3:0|0:0,0:0:0:0:
254,144,83496,6,0,B|149:133|149:133|98:166,1,165,0|2,1:0|3:0,0:0:0:0:
45,176,84587,2,0,B|20:217|27:268|57:300,1,110,8|2,3:0|0:0,0:0:0:0:
152,287,85677,6,0,B|140:316|145:348|162:371,2,82.5,4|4|4,3:0|3:0|3:0,0:0:0:0:
189,246,86768,2,0,L|258:256,1,55,0|0,0:0|3:0,0:0:0:0:
289,284,87314,2,0,L|364:281,1,55,2|0,3:0|3:0,0:0:0:0:
398,274,87859,6,0,B|424:242|429:200|414:166,1,110,0|0,1:0|1:0,0:0:0:0:
345,85,88950,2,0,L|235:80,1,110,0|0,1:0|1:0,0:0:0:0:
165,166,90041,6,0,L|103:163,1,55,0|0,1:0|1:0,0:0:0:0:
80,209,90587,2,0,L|11:220,1,55,0|2,1:0|0:0,0:0:0:0:
0,263,91132,1,2,0:0:0:0:
256,192,91268,12,0,94950,0:0:0:0:
